Bruce Springsteen & The E Street Band – 07-07-1978- The Roxy, West Hollywood, CA (2018) [24bit Hi-Res]

Bruce Springsteen & The E Street Band – 1978/07/07 West Hollywood, CA 24 bit

Bruce Springsteen & The E Street Band - 07-07-1978- The Roxy, West Hollywood, CA (2018) [24bit Hi-Res]

Year Of Release: 2018
Genre: Rock
Format: Flac, Tracks 
Bitrate: lossless, 24bit
Total Size: 6.4 GB


Bruce Springsteen & The E Street Band - 07-07-1978- The Roxy, West Hollywood, CA (2018) [24bit Hi-Res]

1-01. Bruce Springsteen & The E Street Band - Rave On! (04:06) 1-02. Bruce Springsteen & The E Street Band - Badlands (05:30) 1-03. Bruce Springsteen & The E Street Band - Spirit In The Night (07:41) 1-04. Bruce Springsteen & The E Street Band - Darkness on the Edge of Town (04:58) 1-05. Bruce Springsteen & The E Street Band - Candy's Room (03:42) 1-06. Bruce Springsteen & The E Street Band - For You (06:57) 1-07. Bruce Springsteen & The E Street Band - Point Blank (08:18) 1-08. Bruce Springsteen & The E Street Band - The Promised Land (05:45) 1-09. Bruce Springsteen & The E Street Band - Prove It All Night (10:31) 1-10. Bruce Springsteen & The E Street Band - Racing in the Street (09:15) 1-11. Bruce Springsteen & The E Street Band - Thunder Road (06:22) 2-01. Bruce Springsteen & The E Street Band - Paradise By The "C" (04:51) 2-02. Bruce Springsteen & The E Street Band - Fire (03:22) 2-03. Bruce Springsteen & The E Street Band - Adam Raised a Cain (05:39) 2-04. Bruce Springsteen & The E Street Band - Mona (07:45) 2-05. Bruce Springsteen & The E Street Band - She's the One (06:16) 2-06. Bruce Springsteen & The E Street Band - Growin' Up (09:02) 2-07. Bruce Springsteen & The E Street Band - It's Hard To Be A Saint In The City (04:36) 2-08. Bruce Springsteen & The E Street Band - Backstreets (14:37) 2-09. Bruce Springsteen & The E Street Band - Heartbreak Hotel (02:18) 3-01. Bruce Springsteen & The E Street Band - Rosalita (Come Out Tonight) (11:26) 3-02. Bruce Springsteen & The E Street Band - Independence Day (06:07) 3-03. Bruce Springsteen & The E Street Band - Born to Run (05:46) 3-04. Bruce Springsteen & The E Street Band - Because the Night (06:12) 3-05. Bruce Springsteen & The E Street Band - Raise Your Hand (04:47) 3-06. Bruce Springsteen & The E Street Band - Second Encore Break (12:36) 3-07. Bruce Springsteen & The E Street Band - Twist and Shout (07:39)
Sample Rate: 24/192
  1. Dynamic Range Meter


    foobar2000 1.1.10 / Dynamic Range Meter 1.1.1

    --------------------------------------------------------------------------------
    Analyzed: Bruce Springsteen & The E Street Band / 1978/07/07 West Hollywood, CA
    --------------------------------------------------------------------------------

    DR Peak RMS Duration Track
    --------------------------------------------------------------------------------
    DR6 -0.10 dB -8.63 dB 4:06 ?-Rave On!
    DR6 -0.09 dB -8.37 dB 5:30 ?-Badlands
    DR7 -0.10 dB -9.89 dB 7:42 ?-Spirit In The Night
    DR7 -0.10 dB -10.31 dB 4:58 ?-Darkness on the Edge of Town
    DR6 -0.10 dB -9.34 dB 3:42 ?-Candy's Room
    DR7 -0.10 dB -9.93 dB 6:58 ?-For You
    DR8 -0.10 dB -12.54 dB 8:18 ?-Point Blank
    DR7 -0.10 dB -9.35 dB 5:46 ?-The Promised Land
    DR7 -0.09 dB -10.14 dB 10:31 ?-Prove It All Night
    DR12 -0.10 dB -16.53 dB 9:15 ?-Racing in the Street
    DR7 -0.10 dB -10.06 dB 6:23 ?-Thunder Road
    DR6 -0.10 dB -9.38 dB 4:52 ?-Paradise By The "C"
    DR11 -0.10 dB -15.19 dB 3:22 ?-Fire
    DR7 -0.10 dB -8.34 dB 5:40 ?-Adam Raised a Cain
    DR11 -0.10 dB -14.46 dB 7:45 ?-Mona
    DR6 -0.10 dB -8.57 dB 6:17 ?-She's the One
    DR7 -0.10 dB -12.13 dB 9:02 ?-Growin' Up
    DR7 -0.10 dB -8.90 dB 4:37 ?-It's Hard To Be A Saint In The City
    DR8 -0.10 dB -11.68 dB 14:37 ?-Backstreets
    DR7 -0.10 dB -8.89 dB 2:19 ?-Heartbreak Hotel
    DR6 -0.10 dB -8.22 dB 11:26 ?-Rosalita (Come Out Tonight)
    DR12 -0.10 dB -16.77 dB 6:08 ?-Independence Day
    DR6 -0.10 dB -8.11 dB 5:46 ?-Born to Run
    DR7 -0.10 dB -9.24 dB 6:13 ?-Because the Night
    DR6 -0.10 dB -8.11 dB 4:47 ?-Raise Your Hand
    DR13 -0.10 dB -16.38 dB 12:37 ?-Second Encore Break
    DR7 -0.08 dB -9.11 dB 7:39 ?-Twist and Shout
    --------------------------------------------------------------------------------

    Number of tracks: 27
    Official DR value: DR8

    Samplerate: 192000 Hz
    Channels: 2
    Bits per sample: 24
    Bitrate: 5076 kbps
    Codec: FLAC
    ================================================================================


Leave a Reply

  Subscribe  
Notify of